Скачать через торрент Не выходи из дома Don't Leave Home Фильм бесплатно в хорошем качестве torrent

Скачивайте на UnionPeer.org фильмы через торрент без регистрации. Новинки кино в хорошем качестве через торрент. На UnionPeer.org можно скачать через торрент фильмы 2014 и 2015 годов. Самые новые фильмы.

Скачать торрент Не выходи из дома Don't Leave Home бесплатно через .torrent фильм мультфильм сериал

Статистика раздачи
Размер:  3.24 GB   |    Зарегистрирован:  16 дней   |    .torrent скачан:  38 раз   |   
Раздают:  1  
   
загрузка...
 
Автор Сообщение

Galfimbul

avatar Galfimbul


Не выходи из дома /Don't Leave Home

Год выхода: 2018
Жанр: Ужасы, триллер, детектив
Режиссер: Майкл Талли
В ролях: Марк Лоуренс, Хелена Берин, Кэрри Хэмилтон, Анна Маргарет Холлиман, Дэвид МакСавадж, Лалор Родди

О фильме: Одержимая желанием отыскать корни жуткой городской легенды американская художница отправляется в Ирландию, в уединённое поместье художника-отшельника.


Страна: США
Студия: Dialectic, DreamAlliance Entertainment, Indie Entertainment, Orama Filmworks, Salem Street Entertainment
Продолжительность: 01:26:19
Перевод: Профессиональный многоголосый [HDrezka Studio]

Файл
Кодек: MPEG-4 AVC
Качество: WEB-DL 1080p | Dont.Leave.Home.2018.1080p.WEB-DL.DD5.1.H264-FGT
Видео: 1912x1032, 4791 kb/s, 23.976 fps
Звук:
1) 192 kb/s, 2 ch, 48000 kHz, AC3 [RUS] | HDrezka Studio
2) 384 kb/s, 6 ch, 48000 kHz, AC3 [ENG] | Английский оригинал
Субтитры: Отсутствуют

РЕКЛАМА ОТСУТСТВУЕТ
Общее
Уникальный идентификатор : 57888289484683997550293486859914685280 (0x2B8CE1071D03E65CFAC6F229906DAB60)
Полное имя : C:UsersRomaHomeVideosDont.Leave.Home.2018.1080p.WEB-DL.by GoFi.mkv
Формат : Matroska
Версия формата : Version 4 / Version 2
Размер файла : 3,24 Гбайт
Продолжительность : 1 ч. 26 м.
Общий поток : 5369 Кбит/сек
Дата кодирования : UTC 2019-01-05 09:35:04
Программа кодирования : mkvmerge v29.0.0 ('Like It Or Not') 64-bit
Библиотека кодирования : libebml v1.3.6 + libmatroska v1.4.9

Видео
Идентификатор : 1
Формат : AVC
Формат/Информация : Advanced Video Codec
Профиль формата : High@L4
Настройки формата : CABAC / 4 Ref Frames
Параметр CABAC формата : Да
Параметр RefFrames формата : 4 кадра
Идентификатор кодека : V_MPEG4/ISO/AVC
Продолжительность : 1 ч. 26 м.
Битрейт : 4791 Кбит/сек
Ширина : 1912 пикселей
Высота : 1032 пикселя
Соотношение сторон : 1,85:1
Режим частоты кадров : Постоянный
Частота кадров : 23,976 (23976/1000) кадра/сек
Цветовое пространство : YUV
Субдискретизация насыщенности : 4:2:0
Битовая глубина : 8 бит
Тип развёртки : Прогрессивная
Бит/(Пиксели*Кадры) : 0.101
Размер потока : 2,89 Гбайт (89%)
Заголовок : Dont.Leave.Home.2018.1080p.WEB-DL.DD5.1.H264-FGT
Язык : English
Default : Да
Forced : Нет
Цветовой диапазон : Limited
Основные цвета : BT.709
Характеристики трансфера : BT.709
Коэффициенты матрицы : BT.709

Аудио #1
Идентификатор : 2
Формат : AC-3
Формат/Информация : Audio Coding 3
Идентификатор кодека : A_AC3
Продолжительность : 1 ч. 26 м.
Вид битрейта : Постоянный
Битрейт : 192 Кбит/сек
Каналы : 2 канала
Расположение каналов : Front: L R
Частота : 48,0 КГц
Частота кадров : 31,250 кадров/сек (1536 SPF)
Битовая глубина : 16 бит
Метод сжатия : С потерями
Задержка видео : -42 мс.
Размер потока : 119 Мбайт (4%)
Язык : Russian
Default : Да
Forced : Да

Аудио #2
Идентификатор : 3
Формат : AC-3
Формат/Информация : Audio Coding 3
Идентификатор кодека : A_AC3
Продолжительность : 1 ч. 26 м.
Вид битрейта : Постоянный
Битрейт : 384 Кбит/сек
Каналы : 6 каналов
Расположение каналов : Front: L C R, Side: L R, LFE
Частота : 48,0 КГц
Частота кадров : 31,250 кадров/сек (1536 SPF)
Битовая глубина : 16 бит
Метод сжатия : С потерями
Задержка видео : -42 мс.
Размер потока : 237 Мбайт (7%)
Заголовок : Dont.Leave.Home.2018.1080p.WEB-DL.DD5.1.H264-FGT
Язык : English
Default : Нет
Forced : Нет

Меню
00:00:00.000 : en:1
00:10:13.613 : en:2
00:20:14.046 : en:3
00:30:03.969 : en:4
00:39:24.320 : en:5
00:50:29.276 : en:6
01:00:43.390 : en:7
01:10:41.112 : en:8
01:23:43.435 : en:9
Источник http://BlaTor.org

Трекер:  [ 07-Янв-2019 20:30 ]

  

Скачать .torrent

Размер .torrent файла 16 KB


Размер: 3.24 GB
Хэш (hash) релиза: 7567a807cadf9fb16b0102d5d68d155a2899a340
Подписка на обновления:

Торренты, похожие на Не выходи из дома Don't Leave Home скачать торрент

Форум Название Автор Размер S L Добавлен
Зарубежные фильмы 2016-2018 (Новинки зарубежного кино) ·%· Не выходи из дома / Don't Leave Home (2018) WEB-DLRip-AVC | HDRezka Studio Galfimbul 781154668745 MB 0 0 1546797024

20:50

6-Янв-19

Еще никто не оставлял запись к записи скачать торрент Не выходи из дома Don't Leave Home . Будь первым!

!Обратная связь
santana just feel better ft steven tyler (official video) | Lien 25: Add: 28-01-2018 06:24 PM Téléchargement | 2018 NFL Season