Скачать через торрент Украденная принцесса: Руслан и Людмила Викрадена принцеса: Руслан і Людмила Фильм бесплатно в хорошем качестве torrent

Скачивайте на UnionPeer.org фильмы через торрент без регистрации. Новинки кино в хорошем качестве через торрент. На UnionPeer.org можно скачать через торрент фильмы 2014 и 2015 годов. Самые новые фильмы.

Скачать торрент Украденная принцесса: Руслан и Людмила Викрадена принцеса: Руслан і Людмила бесплатно через .torrent фильм мультфильм сериал

Статистика раздачи
Размер:  2.56 GB   |    Зарегистрирован:  1 месяц 12 дней   |    .torrent скачан:  114 раз   |   
Раздают:  1  
   
загрузка...
 
Автор Сообщение

Galfimbul

avatar Galfimbul


Украденная принцесса: Руслан и Людмила /Викрадена принцеса: Руслан і Людмила

Год выхода: 2018
Жанр: мультфильм, фэнтези, приключения, мелодрама, комедия
Режиссер: Олег Маламуж
Роли озвучивали: Надя Дорофеева (Мила), Алексей Завгородний (Руслан), Сергей Притула (Нестор-летописец), Евгений Малуха (Черномор), Николай Боклан (Князь Владимир), Василий Вирастюк (Бандит «Зуб»), Александр Усик (Бандит «Шлем»), Аревик Арзуманова (Сфера), Олег Михайлюта (Фин), Юрий Горбунов (Кот ученый), Маша Ефросинина (Наина), Монатик (Голова), Евгений Гашенко (Фарлаф), Егор Круторогов (Рогдай), Александр Бережок (Ратмир) и др.

О фильме:
«Любовь сильнее магии»

Эта удивительная история случилась в славном городе Киеве во времена отважных воинов, прекрасных принцесс и могущественных колдунов. Бродячий артист Руслан, мечтающий стать рыцарем, встретил прекрасную Милу и влюбился в неё, даже не подозревая, что девушка — дочь киевского князя. Но счастью влюбленных было не суждено продлиться вечно: злой колдун Черномор явился в магическом вихре и на глазах Руслана похитил возлюбленную, рассчитывая превратить силу её любви в собственное колдовское могущество. Не раздумывая, Руслан пустился в погоню за украденной принцессой, чтобы, преодолев все преграды и опасности на своем пути, доказать, что настоящая любовь — сильнее магии.



Страна: Украина
Продолжительность: 01:27:19
Язык: Украинский
Перевод: Субтитры [русские (внешние)]

Файл
Кодек: х.264
Качество: WEB-DLRip (1080p)
Видео: 1920x800 (2.40:1), 25.000 fps, AVC MPEG-4 (х.264), High@L4.0 ~3915 kbps, 0.102 bit/pixel
Аудио: 48 kHz, AC3 Dolby Digital, 2/0 (L,R) ch, ~192 kbps

Реклама отсутствует.
Мультфильм снят по мотивам сказки Александра Пушкина «Руслан и Людмила».

На создание мультфильма ушло 5 лет.

Главную песню мультфильма под названием «К звёздам» исполнила группа "Время и Стекло", которая стала первой украиноязычной песней в их карьере.

Бюджет картины становит $3.7 млн.

Мультфильм установил рекорд кассовых сборов среди фильмов украинского производства ($1.4 млн.)

Кассовые сборы в мировом прокате составили $4.4 млн.
General
Unique ID : 142297886019322653476195079921077954675 (0x6B0D9372D1E039B1FF849188ECB9A873)
Complete name : E:Ruslan i Lyudmila.2018.WEB-DLRip (1080p)_Klayd XRuslan i Lyudmila.2018.WEB-DLRip (1080p)_Klayd X.mkv
Format : Matroska
File size : 2.56 GiB
Duration : 1h 27mn
Overall bit rate : 4 190 Kbps
Encoded date : UTC 2018-11-22 14:42:36
Writing application : mkvmerge v28.2.0 ('The Awakening') 64-bit
Writing library : libebml v1.3.6 + libmatroska v1.4.9

Video
ID : 1
Format : AVC
Format/Info : Advanced Video Codec
Format profile : High@L4.0
Format settings, CABAC : Yes
Format settings, ReFrames : 3 frames
Codec ID : V_MPEG4/ISO/AVC
Duration : 1h 27mn
Bit rate : 3 915 Kbps
Width : 1 920 pixels
Height : 800 pixels
Display aspect ratio : 2.40:1
Frame rate : 25.000 fps
Color space : YUV
Chroma subsampling : 4:2:0
Bit depth : 8 bits
Scan type : Progressive
Bits/(Pixel*Frame) : 0.102
Stream size : 2.39 GiB (93%)
Language : Ukrainian

Audio
ID : 2
Format : AC-3
Format/Info : Audio Coding 3
Mode extension : CM (complete main)
Codec ID : A_AC3
Duration : 1h 27mn
Bit rate mode : Constant
Bit rate : 192 Kbps
Channel(s) : 2 channels
Channel positions : Front: L R
Sampling rate : 48.0 KHz
Bit depth : 16 bits
Compression mode : Lossy
Stream size : 120 MiB (5%)
Title : AC3 2.0 @ 192 kbps
Language : Ukrainian
Источник http://BlaTor.org

Трекер:  [ 11-Дек-2018 11:40 ]

  

Скачать .torrent

Размер .torrent файла 13 KB


Размер: 2.56 GB
Хэш (hash) релиза: ab9c9269e11549e8d3216a452e401c0c40a48f36
Подписка на обновления:

Торренты, похожие на Украденная принцесса: Руслан и Людмила Викрадена принцеса: Руслан і Людмила скачать торрент

Форум Название Автор Размер S L Добавлен
Мультфильмы 2016-2018 (Новинки мультфильмов) ·%· Украденная принцесса: Руслан и Людмила / Викрадена принцеса: Руслан і Людмила (2018) WEB-DLRip | КПК | Sub Galfimbul 413796261395 MB 0 0 1545154221

20:30

18-Дек-18

Мультфильмы 2016-2018 (Новинки мультфильмов) ·%· Украденная принцесса: Руслан и Людмила / Викрадена принцеса: Руслан і Людмила (2018) WEB-DLRip | Sub Galfimbul 15564118191.45 GB 0 0 1544526019

14:00

11-Дек-18

Еще никто не оставлял запись к записи скачать торрент Украденная принцесса: Руслан и Людмила Викрадена принцеса: Руслан і Людмила . Будь первым!

!Обратная связь
Jane C. Ginsburg | Bracciale LOVE MAKES A FAMILY Argento 925 Lui Lei Bimbo Bimba Made in Italy | Oordeel te Neurenberg